Partner

Multi Link [18+] Nymphomaniac 2013 Volume I & II Unrated Webrip x264 AC3 TiTAN - Người Đàn Bà Cuồng

Thảo luận trong 'BRrip' bắt đầu bởi #kulee@, 8 Tháng ba 2014.

  1. #kulee@

    #kulee@ .::Đẹp Zai No1::.

    Bài viết:
    930
    Đã được thích:
    143
    Nymphomaniac 2013 1 & 2 Unrated Webrip x264 AC3 TiTAN

    Người Đàn Bà Cuồng Dâm


    Bạn hãy Đăng Ký hoặc Đăng Nhập để thấy được link nhé

    [​IMG]


    Mã:
     http://www.imdb.com/title/tt1937390/
    
    Source: VOD  Cheers Bro
    
    Note: OK i put the unrated tag on this just because it is full on porno in allot of the film..  And there is just some real racy parts.. so be warned not for the kiddies.. for u adults Enjoy ;)
    
    General
    
    Format                                   : Matroska
    Format version                           : Version 2
    File size                                : 915 MiB
    Duration                                 : 1h 50mn
    Overall bit rate mode                    : Variable
    Overall bit rate                         : 1 157 Kbps
    Encoded date                             : UTC 2014-03-05 19:48:07
    Writing application                      : mkvmerge v6.5.0 ('Isn't she lovely') built on Oct 20 2013 12:50:05
    Writing library                          : libebml v1.3.0 + libmatroska v1.4.1
    
    Video
    ID                                       : 1
    Format                                   : AVC
    Format/Info                              : Advanced Video Codec
    Format profile                           : High@L4.1
    Format settings, CABAC                   : Yes
    Format settings, ReFrames                : 3 frames
    Codec ID                                 : V_MPEG4/ISO/AVC
    Duration                                 : 1h 50mn
    Bit rate mode                            : Variable
    Bit rate                                 : 942 Kbps
    Maximum bit rate                         : 40.0 Mbps
    Width                                    : 720 pixels
    Height                                   : 304 pixels
    Display aspect ratio                     : 2.35:1
    Frame rate mode                          : Constant
    Frame rate                               : 25.000 fps
    Color space                              : YUV
    Chroma subsampling                       : 4:2:0
    Bit depth                                : 8 bits
    Scan type                                : Progressive
    Bits/(Pixel*Frame)                       : 0.172
    Stream size                              : 745 MiB (81%)
    Writing library                          : x264 core 138 r2358 9e941d1
    Default                                  : Yes
    Forced                                   : No
    Color primaries                          : BT.709
    Transfer characteristics                 : BT.709
    Matrix coefficients                      : BT.709
    
    Audio
    ID                                       : 2
    Format                                   : AC-3
    Format/Info                              : Audio Coding 3
    Mode extension                           : CM (complete main)
    Format settings, Endianness              : Big
    Codec ID                                 : A_AC3
    Duration                                 : 1h 50mn
    Bit rate mode                            : Constant
    Bit rate                                 : 192 Kbps
    Channel(s)                               : 2 channels
    Channel positions                        : Front: L R
    Sampling rate                            : 44.1 KHz
    Bit depth                                : 16 bits
    Compression mode                         : Lossy
    Stream size                              : 152 MiB (17%)
    Default                                  : Yes
    Forced                                   : No

    [​IMG]
    [​IMG]
    [​IMG]



    FSHARE
    TENLUA
    SUB

    Các Bạn MOD trc Khí Xóa Bài Nên Check Kĩ Phim Nhé. Cám Ơn
    Đoàn Tiến Thanh thích bài này.
  2. khangvan

    khangvan Thành Viên Sơ Cấp 1

    Bài viết:
    29
    Đã được thích:
    5
    So hot, I like this :D
  3. #kulee@

    #kulee@ .::Đẹp Zai No1::.

    Bài viết:
    930
    Đã được thích:
    143
    xem đi ko phí =))
  4. 3597dxta

    3597dxta Thành Viên Sơ Cấp 1

    Bài viết:
    1
    Đã được thích:
    0
    thanks kiu
  5. #kulee@

    #kulee@ .::Đẹp Zai No1::.

    Bài viết:
    930
    Đã được thích:
    143
    ko có j :)
  6. tuanhai7621

    tuanhai7621 Thành Viên Sơ Cấp 1

    Bài viết:
    1
    Đã được thích:
    0
    ko có sub việt

Chia sẻ trang này

Gợi ý tìm kiếm trên google:

  1. nymphomaniac vol 1 vietsub

    ,
  2. nymphomaniac-vietsub